Family Front

Family Front
Family Front
Wykonawca:
Habakuk
Wydawca:
Lou & Rocked Boys
Rok wydania:

2008

Typ nośnika:
Termin realizacji:

24-48h

Numer katalogowy:

LOU 040 CD

Ilość sztuk:

Cena: 30.00 zł

Opis płyty:

Osiemnastolecie działalności Habakuk świętuje wydaniem nowej płyty. Już w maju premierę będzie miał album "Family Front", na którym znajdą się nagrania Habakuk z gościnnym udziałem czołówki polskich i zagranicznych wokalistów. Na płycie znajdą się takie znakomitości jak wspomniani wyżej Don Carlos oraz Mikey Dread. Nagrania z nimi to prawdopodobnie najważniejsze nagrania w historii polskiego reggae. Gościnnie zaśpiewają też: Muniek Staszczyk z T.Love, Ras Luta z Eastwest Rockers, Junior Stress z LSM, Renata Przemyk, Mercedes z legendarnego R.A.P. (aktualnie z DIM). Zaśpiewa też wschodząca gwiazda światowego reggae -- angielska wokalistka Ava Leigh. Remix utworu z Muńkiem zrobi DJ Adamus.

Płyta zostanie wydana przez wrocławski label Lou & Rocked Boys będący pod skrzydłami Rockers Publishing. Album w naturalny sposób łączyć będzie scenę żywego grania reggae ze sceną sound systemową. Jest swego rodzaju powrotem do korzeni. Habakuk nigdy nie zapomina o ludziach którzy z nim współpracowali i dlatego szatę graficzną do płyty przygotuje tradycyjnie grupa Szumlaska, czyli Artur Szumlas -- naczelny kreator wizji Habakuk, autor wielu tekstów, zdjęć, obrazów, plakatów, wizualizacji. 

 

* Jubileuszowa płyta Habakuka, który świętował 18-lecie istnienia.

* Nagrań dokonano w studiu Radioaktywni w latach 2003-2008.

* Dodatkowe nagrania:

- Track 2 - Jacek "Dżeksong" Onaszkiewicz

- Track 3 - FlyzZza Studio

- Track 6 - Chupacabra Studio

- Track 12 - Jarek Toifl, Studio H.H. Poland

- Track 13 - Chupacabra Studio

 

* Video:

File size : 109 MiB

Duration : 3 min 44 s

Overall bit rate : 4 071 kb/s

Format : MPEG-4

Bit rate : 2 525 kb/s

Width : 720 pixels

Height : 576 pixels

Display aspect ratio : 4:3

Frame rate : 25.000 FPS

Standard : PAL

Stream size : 67.7 MiB (62%)

Format : PCM

Bit rate : 1 536 kb/s

Channel(s) : 2 channels

Sampling rate : 48.0 kHz

Bit depth : 16 bits

Stream size : 41.2 MiB (38%)

 

 

* Bass, Programmed By – Wojtek Cyndecki

* Design – Artur Szumlas

* Director Of Photography, Animation – Magdalena Deput (tracks: video), Mariusz Harmasz (tracks: video)

* Guitar, Programmed By – Krzysztof Niedźwiecki, Wojciech Turbiarz

* Keyboards – Marek Makles

* Lyrics By – Anna Saraniecka (tracks: 4), Ava Leigh (tracks: 9), Bogumił Morawski (tracks: 14), Arkadiusz Dubas (tracks: 14, 15), Don Carlos (tracks: 5), Junior Stress (tracks: 2), Mamadou Diouf (tracks: 7), Mercedes (13) (tracks: 12), Mewa (tracks: 6, 13), Mikey Dread (tracks: 1, 10), Paweł Sołtys (tracks: 14), Ras Luta (tracks: 8), Krzysztof Fląt (tracks: 14), Wojciech Turbiarz (tracks: 3, 14, video), Sławomir Stępień (tracks: 14), Zygmunt Staszczyk (tracks: 11), FlyzZza (tracks: 3)

* Music By – Krzysztof Niedźwiecki (tracks: 11), Marek Makles (tracks: 1, 5, 6, 9, 12, 14), Wojtek Cyndecki (tracks: 2, 8, 10, 15, video), Wojciech Turbiarz (tracks: 3, 7, 13)

* Music By, Producer – Jaromir Puszek (tracks: 4)

* Percussion – Dominik Muszyński (tracks: 8), Jaromir Puszek, Piotr "Jackson" Wolski (tracks: 1, 4, 7, 9, 10, 13)

* Producer – Adam Celiński (tracks: 1-15), Marek Makles (tracks: 1), Piotr "Jackson" Wolski (tracks: 7), Wojtek Cyndecki (tracks: 1-6, 8, 9, 12,13-15), Wojciech Turbiarz (tracks: 3, 6, 7, 8, 12, 13)

* Programmed By – Piotr "Jackson" Wolski (tracks: 4)

* Realization, Mixed By, Mastered By – Adam Celiński

* Saxophone – Łukasz Kluczniak (tracks: 1, 3, 5, 8-10, 12-15)

* Scratches – DJ Haem (tracks: 2, 3, 13)

* Trumpet – Daniel Pomorski (tracks: 1, 3-6, 8-10, 12-15)

* Video Editor – Marcin Gorgolewski (tracks: video)

* Voice – Valerie "Vybz" Skeete* (tracks: 9), Wojciech Turbiarz (tracks: 3, 14)

 

Family Front (CD)
1.Put the Smile on Your Face feat. Mikey Dread
2.Rytm Serca feat. Junior Stress
3.Solo feat.Flyzzza
4.Jesteś Drogą feat. Renata Przemyk
5.True Love feat. Don Carlos
6.Siła Serca feat. Mewa
7.Xamadi – Źle Wychowany feat. Mamadu Diouf
8.Walcz Cały Czas feat. Ras Luta
9.Catch A Fire feat. Ava Leigh
10.Hold on Poland feat. Mikey Dread
11.The City feat. Muniek
12.Time Will Tell feat.Mercedes
13.Fraktal feat. Mewa
14.Familijna Komitywa feat. Pablopavo, Bob One, Reggaenerator, Dabass, Zabójczy
15.Tutaj w PL feat. Dabass Bonus Video „Jestem Twój”

Habakuk

Habakuk

Nie wiadomo kiedy to minęło, ale faktem jest że oto Habakuk w lutym 2008 roku skończył 18 lat działalności... Nieskromnie możemy powiedzieć, że...

Rozumiem Używamy plików cookies m.in. w celu świadczenia usług, reklamy i statystyk.
Jeśli nie chcesz, by pliki cookies były zapisywane na Twoim dysku, zmień ustawienia swojej przeglądarki.